#TITLE:System of A Down;
#SUBTITLE:- Violent Pornography;
#ARTIST:Unknown artist;
#TITLETRANSLIT:;
#SUBTITLETRANSLIT:;
#ARTISTTRANSLIT:;
#CREDIT:;
#BANNER:;
#BACKGROUND:;
#LYRICSPATH:;
#CDTITLE:;
#MUSIC:System of A Down - Violent Pornography.mp3;
#OFFSET:0.000;
#SAMPLESTART:100.000;
#SAMPLELENGTH:12.000;
#SELECTABLE:YES;
#BPMS:0.000=60.000;
#STOPS:;
#BGCHANGES:;
// cache tags:
#FIRSTBEAT:0.000;
#LASTBEAT:212.000;
#SONGFILENAME:Songs/nhac/System of A Down/System of A Down - Violent Pornography.sm;
#HASMUSIC:1;
#HASBANNER:0;
#MUSICLENGTH:211.858;
// end cache tags

//---------------dance-single - ----------------
#NOTES:
     dance-single:
     :
     Easy:
     1:
     0.171,0.275,0.349,0.189,0.000,124.000,74.000,40.000,0.000,33.000:
1001
0000
0000
0000
,
0220
0000
0000
2332
,
0000
0000
3113
0111
,
1001
0000
0220
2332
,
0000
3223
0000
0332
,
0003
1111
1111
1001
,
0110
1000
0010
1100
,
0101
0010
0100
1001
,
0100
1110
0101
1010
,
1101
0100
1000
0010
,
0001
1100
0010
0001
,
0011
0100
1000
2002
,
0000
0000
0000
3113
,
1001
0000
1001
0000
,
1001
1001
1001
0110
,
1001
1111
0110
1001
,
2112
3113
0000
0002
,
0000
0000
0000
2003
,
0000
0000
3220
0000
,
0000
0000
0000
0000
,
0000
0000
0000
0000
,
0000
0000
0000
0000
,
0330
2002
0000
0000
,
0000
0000
0000
0000
,
0000
0000
3223
0000
,
2332
0000
0000
0000
,
0000
3020
0000
0000
,
0130
1110
1100
1000
,
0010
1100
1100
0010
,
1100
0013
1100
0110
,
1001
0100
0010
0102
,
0000
0200
0000
0000
,
0020
0000
0000
0000
,
0000
0000
0000
2333
,
0020
0000
0000
3031
,
1010
0101
1110
0101
,
0110
1001
0110
1101
,
0110
1001
1100
0011
,
1000
0110
0100
0001
,
1000
0110
0000
0101
,
1000
0011
0110
0001
,
0220
0000
0000
2330
,
0002
0000
0000
0000
,
3000
0000
0000
0000
,
2000
0000
0000
0000
,
0000
0003
0000
0200
,
0000
0300
0020
0000
,
0000
3130
0001
1110
,
0000
0100
1001
0100
,
0010
0100
1001
0100
,
0011
1110
1000
0001
,
0100
0000
1010
0000
,
2002
0000
0000
0000
,
3003
0000
0000
0000
;
